<svg xmlns="http://www.w3.org/2000/svg">
<defs>
<font
       id="EmbeddedFont_1"
       horiz-adv-x="2048">
      <font-face
         font-family="StarSymbol embedded"
         units-per-em="2048"
         ascent="1640"
         descent="397"
         id="font-face25511" />
      <missing-glyph
         horiz-adv-x="2048"
         id="missing-glyph25513">
        <path
           style="fill:none;stroke:black;stroke-width:33"
           d="M 0,2048 L 2047,2048 2047,1 0,1 0,2048 Z"
           id="path25515" />
      </missing-glyph>
      <glyph
         unicode="–"
         horiz-adv-x="1165"
         id="glyph25517">
        <path
           d="M -4,459 L 1135,459 1135,606 -4,606 -4,459 Z"
           id="path25519" />
      </glyph>
      <glyph
         unicode="●"
         horiz-adv-x="1191"
         id="glyph25521">
        <path
           d="M 813,0 C 632,0 489,54 383,161 276,268 223,411 223,592 223,773 276,916 383,1023 489,1130 632,1184 813,1184 992,1184 1136,1130 1245,1023 1353,916 1407,772 1407,592 1407,412 1353,268 1245,161 1136,54 992,0 813,0 Z"
           id="path25523" />
      </glyph>
    </font>
    <desc
       id="desc25685">Slide</desc>
  </defs>
  <defs
     id="defs25525">
    <font
       id="EmbeddedFont_2"
       horiz-adv-x="2048">
      <font-face
         font-family="Nimbus Roman No9 L embedded"
         units-per-em="2048"
         ascent="1905"
         descent="582"
         id="font-face25528" />
      <missing-glyph
         horiz-adv-x="2048"
         id="missing-glyph25530">
        <path
           style="fill:none;stroke:black;stroke-width:33"
           d="M 0,2048 L 2047,2048 2047,1 0,1 0,2048 Z"
           id="path25532" />
      </missing-glyph>
      <glyph
         unicode="1"
         horiz-adv-x="583"
         id="glyph25534">
        <path
           d="M 584,1384 C 584,1384 584,1384 223,1198 223,1198 223,1198 223,1169 247,1179 269,1187 277,1191 313,1206 347,1214 367,1214 409,1214 428,1183 428,1118 428,1118 428,1118 428,190 428,123 411,76 379,57 349,39 321,31 237,31 237,31 237,31 237,0 237,0 237,0 791,0 791,0 791,0 791,31 632,31 600,53 600,152 600,152 600,152 600,1380 600,1380 600,1380 584,1384 Z"
           id="path25536" />
      </glyph>
    </font>
  </defs>
  <defs
     id="defs25538">
    <font
       id="EmbeddedFont_3"
       horiz-adv-x="2048">
      <font-face
         font-family="Nimbus Sans L embedded"
         units-per-em="2048"
         ascent="1958"
         descent="582"
         id="font-face25541" />
      <missing-glyph
         horiz-adv-x="2048"
         id="missing-glyph25543">
        <path
           style="fill:none;stroke:black;stroke-width:33"
           d="M 0,2048 L 2047,2048 2047,1 0,1 0,2048 Z"
           id="path25545" />
      </missing-glyph>
      <glyph
         unicode=" "
         horiz-adv-x="1032"
         id="glyph25547" />
      <glyph
         unicode="C"
         horiz-adv-x="1324"
         id="glyph25549">
        <path
           d="M 1356,1030 C 1296,1358 1108,1518 780,1518 580,1518 418,1454 307,1332 172,1184 98,971 98,729 98,484 174,273 315,127 430,8 578,-47 772,-47 1137,-47 1341,150 1387,545 1387,545 1387,545 1190,545 1174,443 1153,373 1122,314 1061,191 934,121 774,121 477,121 289,359 289,731 289,1114 469,1350 758,1350 879,1350 991,1313 1053,1256 1108,1204 1139,1141 1161,1030 1161,1030 1161,1030 1356,1030 Z"
           id="path25551" />
      </glyph>
      <glyph
         unicode="E"
         horiz-adv-x="1112"
         id="glyph25553">
        <path
           d="M 375,680 L 1188,680 1188,848 375,848 375,1325 1219,1325 1219,1493 184,1493 184,0 1255,0 1255,168 375,168 375,680 Z"
           id="path25555" />
      </glyph>
      <glyph
         unicode="F"
         horiz-adv-x="1033"
         id="glyph25557">
        <path
           d="M 375,680 L 1087,680 1087,848 375,848 375,1325 1186,1325 1186,1493 184,1493 184,0 375,0 375,680 Z"
           id="path25559" />
      </glyph>
      <glyph
         unicode="L"
         horiz-adv-x="953"
         id="glyph25561">
        <path
           d="M 354,1493 L 164,1493 164,0 1092,0 1092,168 354,168 354,1493 Z"
           id="path25563" />
      </glyph>
      <glyph
         unicode="N"
         horiz-adv-x="1192"
         id="glyph25565">
        <path
           d="M 1323,1493 L 1143,1493 1143,272 363,1493 156,1493 156,0 336,0 336,1211 1108,0 1323,0 1323,1493 Z"
           id="path25567" />
      </glyph>
      <glyph
         unicode="O"
         horiz-adv-x="1483"
         id="glyph25569">
        <path
           d="M 797,1518 C 369,1518 78,1203 78,735 78,268 369,-47 799,-47 979,-47 1141,8 1262,111 1423,248 1520,479 1520,723 1520,1205 1235,1518 797,1518 Z M 797,1350 C 1120,1350 1329,1104 1329,727 1329,367 1114,121 799,121 481,121 268,367 268,735 268,1104 481,1350 797,1350 Z"
           id="path25571" />
      </glyph>
      <glyph
         unicode="S"
         horiz-adv-x="1192"
         id="glyph25573">
        <path
           d="M 1221,1055 C 1219,1348 1018,1518 674,1518 346,1518 143,1350 143,1079 143,897 240,782 436,731 436,731 436,731 807,633 995,584 1081,508 1081,391 1081,311 1038,229 975,184 915,143 821,121 700,121 539,121 428,160 356,246 301,311 276,383 279,475 279,475 279,475 98,475 100,338 127,248 186,166 289,27 461,-47 688,-47 866,-47 1012,-6 1108,68 1208,148 1272,281 1272,410 1272,594 1157,729 954,784 954,784 954,784 580,885 399,934 334,991 334,1106 334,1258 467,1358 668,1358 905,1358 1038,1250 1040,1055 1040,1055 1040,1055 1221,1055 Z"
           id="path25575" />
      </glyph>
      <glyph
         unicode="T"
         horiz-adv-x="1192"
         id="glyph25577">
        <path
           d="M 725,1325 L 1214,1325 1214,1493 43,1493 43,1325 535,1325 535,0 725,0 725,1325 Z"
           id="path25579" />
      </glyph>
      <glyph
         unicode="a"
         horiz-adv-x="1033"
         id="glyph25581">
        <path
           d="M 1096,100 C 1077,96 1069,96 1059,96 999,96 967,127 967,180 967,180 967,180 967,811 967,1002 827,1104 563,1104 408,1104 279,1059 207,979 158,924 137,862 133,756 133,756 133,756 305,756 319,887 397,946 557,946 711,946 797,889 797,787 797,787 797,787 797,742 797,670 754,639 619,623 377,592 340,584 274,557 150,506 86,410 86,271 86,76 221,-47 438,-47 573,-47 682,0 803,111 815,2 868,-47 979,-47 1014,-47 1040,-43 1096,-29 1096,-29 1096,-29 1096,100 Z M 797,338 C 797,281 780,246 729,199 659,135 575,103 475,103 342,103 264,166 264,275 264,387 340,445 522,471 702,496 739,504 797,531 797,531 797,531 797,338 Z"
           id="path25583" />
      </glyph>
      <glyph
         unicode="c"
         horiz-adv-x="927"
         id="glyph25585">
        <path
           d="M 965,713 C 956,817 934,885 893,944 819,1045 690,1104 541,1104 252,1104 63,875 63,518 63,172 248,-47 539,-47 795,-47 956,107 977,369 977,369 977,369 805,369 776,197 688,111 543,111 354,111 242,264 242,518 242,787 352,946 539,946 682,946 772,862 793,713 793,713 793,713 965,713 Z"
           id="path25587" />
      </glyph>
      <glyph
         unicode="d"
         horiz-adv-x="980"
         id="glyph25589">
        <path
           d="M 1014,1493 C 1014,1493 1014,1493 844,1493 844,1493 844,1493 844,938 772,1047 657,1104 514,1104 236,1104 53,881 53,539 53,176 231,-47 520,-47 668,-47 770,8 862,141 862,141 862,141 862,0 862,0 862,0 1014,0 1014,0 1014,0 1014,1493 Z M 543,944 C 727,944 844,780 844,524 844,277 725,113 545,113 356,113 231,279 231,529 231,778 356,944 543,944 Z"
           id="path25591" />
      </glyph>
      <glyph
         unicode="e"
         horiz-adv-x="980"
         id="glyph25593">
        <path
           d="M 1051,480 C 1051,643 1038,742 1008,822 938,998 774,1104 573,1104 274,1104 82,875 82,522 82,170 268,-47 569,-47 815,-47 985,92 1028,326 1028,326 1028,326 856,326 809,185 713,111 575,111 467,111 375,160 317,250 276,312 262,373 260,480 260,480 260,480 1051,480 Z M 264,619 C 279,817 399,946 571,946 739,946 868,807 868,631 868,627 868,623 866,619 866,619 866,619 264,619 Z"
           id="path25595" />
      </glyph>
      <glyph
         unicode="f"
         horiz-adv-x="504"
         id="glyph25597">
        <path
           d="M 528,1073 C 528,1073 528,1073 350,1073 350,1073 350,1073 350,1240 350,1311 391,1348 469,1348 483,1348 489,1348 528,1348 528,1348 528,1348 528,1489 489,1498 467,1500 432,1500 274,1500 180,1409 180,1256 180,1256 180,1256 180,1073 180,1073 180,1073 37,1073 37,1073 37,1073 37,934 37,934 37,934 180,934 180,934 180,934 180,0 180,0 180,0 350,0 350,0 350,0 350,934 350,934 350,934 528,934 528,934 528,934 528,1073 Z"
           id="path25599" />
      </glyph>
      <glyph
         unicode="g"
         horiz-adv-x="953"
         id="glyph25601">
        <path
           d="M 844,1073 C 844,1073 844,1073 844,917 758,1044 653,1104 516,1104 244,1104 59,866 59,518 59,342 107,198 195,96 274,6 389,-48 502,-48 637,-48 731,10 827,145 827,145 827,145 827,90 827,-56 809,-144 766,-203 721,-267 633,-304 528,-304 451,-304 381,-283 334,-246 295,-215 279,-187 268,-123 268,-123 268,-123 94,-123 113,-326 270,-447 522,-447 682,-447 819,-396 889,-310 971,-211 1001,-76 1001,176 1001,176 1001,176 1001,1073 1001,1073 1001,1073 844,1073 Z M 535,946 C 719,946 827,790 827,522 827,266 717,110 537,110 350,110 238,268 238,528 238,786 352,946 535,946 Z"
           id="path25603" />
      </glyph>
      <glyph
         unicode="h"
         horiz-adv-x="874"
         id="glyph25605">
        <path
           d="M 143,1493 C 143,1493 143,1493 143,0 143,0 143,0 313,0 313,0 313,0 313,592 313,811 428,954 604,954 659,954 715,936 756,905 805,870 825,819 825,744 825,744 825,744 825,0 825,0 825,0 995,0 995,0 995,0 995,811 995,991 866,1104 657,1104 506,1104 414,1057 313,926 313,926 313,926 313,1493 313,1493 313,1493 143,1493 Z"
           id="path25607" />
      </glyph>
      <glyph
         unicode="i"
         horiz-adv-x="187"
         id="glyph25609">
        <path
           d="M 307,1073 L 137,1073 137,0 307,0 307,1073 Z M 307,1493 L 135,1493 135,1278 307,1278 307,1493 Z"
           id="path25611" />
      </glyph>
      <glyph
         unicode="k"
         horiz-adv-x="927"
         id="glyph25613">
        <path
           d="M 289,1493 L 119,1493 119,0 289,0 289,418 455,582 817,0 1028,0 590,703 963,1073 743,1073 289,619 289,1493 Z"
           id="path25615" />
      </glyph>
      <glyph
         unicode="l"
         horiz-adv-x="187"
         id="glyph25617">
        <path
           d="M 311,1493 L 139,1493 139,0 311,0 311,1493 Z"
           id="path25619" />
      </glyph>
      <glyph
         unicode="m"
         horiz-adv-x="1430"
         id="glyph25621">
        <path
           d="M 143,1073 C 143,1073 143,1073 143,0 143,0 143,0 315,0 315,0 315,0 315,674 315,830 428,954 567,954 694,954 766,877 766,739 766,739 766,739 766,0 766,0 766,0 938,0 938,0 938,0 938,674 938,830 1051,954 1190,954 1315,954 1389,875 1389,739 1389,739 1389,739 1389,0 1389,0 1389,0 1561,0 1561,0 1561,0 1561,805 1561,997 1450,1104 1249,1104 1106,1104 1020,1061 920,940 856,1055 770,1104 631,1104 487,1104 393,1051 301,922 301,922 301,922 301,1073 301,1073 301,1073 143,1073 Z"
           id="path25623" />
      </glyph>
      <glyph
         unicode="n"
         horiz-adv-x="874"
         id="glyph25625">
        <path
           d="M 143,1073 C 143,1073 143,1073 143,0 143,0 143,0 315,0 315,0 315,0 315,592 315,811 430,954 606,954 741,954 827,873 827,744 827,744 827,744 827,0 827,0 827,0 997,0 997,0 997,0 997,811 997,989 864,1104 657,1104 498,1104 395,1043 301,893 301,893 301,893 301,1073 301,1073 301,1073 143,1073 Z"
           id="path25627" />
      </glyph>
      <glyph
         unicode="o"
         horiz-adv-x="1006"
         id="glyph25629">
        <path
           d="M 557,1104 C 256,1104 74,889 74,529 74,168 254,-47 559,-47 860,-47 1044,168 1044,520 1044,891 866,1104 557,1104 Z M 559,946 C 752,946 866,789 866,522 866,270 748,111 559,111 369,111 252,268 252,529 252,787 369,946 559,946 Z"
           id="path25631" />
      </glyph>
      <glyph
         unicode="r"
         horiz-adv-x="530"
         id="glyph25633">
        <path
           d="M 141,1073 C 141,1073 141,1073 141,0 141,0 141,0 313,0 313,0 313,0 313,557 313,711 352,811 434,871 487,909 539,922 657,922 657,922 657,922 657,1098 629,1102 614,1104 592,1104 481,1104 397,1038 299,879 299,879 299,879 299,1073 299,1073 299,1073 141,1073 Z"
           id="path25635" />
      </glyph>
      <glyph
         unicode="t"
         horiz-adv-x="504"
         id="glyph25637">
        <path
           d="M 520,1073 C 520,1073 520,1073 344,1073 344,1073 344,1073 344,1368 344,1368 344,1368 174,1368 174,1368 174,1368 174,1073 174,1073 174,1073 29,1073 29,1073 29,1073 29,934 29,934 29,934 174,934 174,934 174,934 174,123 174,14 248,-47 381,-47 422,-47 463,-43 520,-33 520,-33 520,-33 520,111 498,103 471,103 438,103 365,103 344,123 344,199 344,199 344,199 344,934 344,934 344,934 520,934 520,934 520,934 520,1073 Z"
           id="path25639" />
      </glyph>
      <glyph
         unicode="u"
         horiz-adv-x="874"
         id="glyph25641">
        <path
           d="M 987,0 C 987,0 987,0 987,1073 987,1073 987,1073 817,1073 817,1073 817,1073 817,465 817,246 702,103 524,103 389,103 303,184 303,313 303,313 303,313 303,1073 303,1073 303,1073 133,1073 133,1073 133,1073 133,246 133,68 266,-47 475,-47 633,-47 733,8 834,150 834,150 834,150 834,0 834,0 834,0 987,0 Z"
           id="path25643" />
      </glyph>
      <glyph
         unicode="v"
         horiz-adv-x="1006"
         id="glyph25645">
        <path
           d="M 584,0 L 995,1073 803,1073 500,203 213,1073 20,1073 397,0 584,0 Z"
           id="path25647" />
      </glyph>
      <glyph
         unicode="x"
         horiz-adv-x="954"
         id="glyph25649">
        <path
           d="M 598,555 L 958,1073 766,1073 508,684 250,1073 55,1073 414,547 35,0 229,0 502,412 770,0 969,0 598,555 Z"
           id="path25651" />
      </glyph>
    </font>
</defs>
</svg>
